<?xml version="1.0" standalone="no"?> <!DOCTYPE svg PUBLIC "-//W3C//DTD SVG 1.0//EN" "http://www.w3.org/TR/2001/REC-SVG-20010904/DTD/svg10.dtd" > <svg xmlns="http://www.w3.org/2000/svg" width="100%" height="100%">
<defs >
<font horiz-adv-x="538" ><font-face
    font-family="SoleilW01-Regular"
    units-per-em="1000"
    panose-1="2 0 5 3 3 0 0 2 0 4"
    ascent="1081"
    descent="-328"
    alphabetic="0" />
<missing-glyph horiz-adv-x="550" d="M239 126V191H298V126H239ZM490 664V0H60V664H490ZM116 53H434V611H116V53ZM213 411H162V413Q162 438 171 458T195 493T230 516T272 524Q296 524 316 515T351 492T374 459T382 423Q382 396 374 377T354 345T327 323T296 307V243H242V336Q258
342 274 348T303 365T323 388T331 421Q331 444 315 461T272 478Q245 478 229 462T213 416V411Z" />
<glyph unicode=" " glyph-name="space" horiz-adv-x="250" />
<glyph unicode="!" glyph-name="exclam" horiz-adv-x="317" d="M212 589L203 210H114L105 589V700H212V589ZM106 0V116H211V0H106Z" />
<glyph unicode="&quot;" glyph-name="quotedbl" horiz-adv-x="477" d="M89 435L80 700H179L170 435H89ZM307 435L298 700H397L388 435H307Z" />
<glyph unicode="#" glyph-name="numbersign" horiz-adv-x="720" d="M199 263L223 401H133V475H235L268 664H349L316 475H446L479 664H560L527 475H655V401H515L491 263H587V189H479L447 0H366L398 189H268L236 0H155L187 189H65V263H199ZM280 263H410L434 401H304L280
263Z" />
<glyph unicode="$" glyph-name="dollar" horiz-adv-x="550" d="M95 149Q130 114 171 92T266 69Q292 69 317 75T363 96T396 132T409 185Q409 213 396 233T362 267T314 292T257 314Q224 326 191 340T131 375T89 426T72 502Q72 539 85 569T123 622T179 658T251 675V770H315V673Q400
664 479 608L422 541Q363 594 278 594Q258 594 237 589T200 573T173 544T162 502Q162 479 173 463T204 435T249 413T302 393Q337 381 373 366T438 329T485 275T503 195Q503 150 488 115T447 54T385 13T310 -9V-106H246V-12Q184 -10 132 15T30 88L95 149Z" />
<glyph unicode="%" glyph-name="percent" horiz-adv-x="850" d="M218 706Q251 706 280 694T330 660T364 609T377 546Q377 513 365 484T331 434T280 400T218 387Q185 387 156 399T105 433T71 484T58 546Q58 579 70 608T104 659T155 693T218 706ZM219 635Q182 635
158 610T133 547Q133 509 157 484T219 458Q254 458 278 483T302 547Q302 585 278 610T219 635ZM633 313Q666 313 695 301T745 267T779 216T792 153Q792 120 780 91T746 41T695 7T633 -6Q600 -6 571 6T520 40T486 91T473 153Q473 186 485 215T519 266T570 300T633
313ZM634 242Q597 242 573 217T548 154Q548 116 572 91T634 65Q669 65 693 90T717 154Q717 192 693 217T634 242ZM703 672L206 -12L151 28L648 712L703 672Z" />
<glyph unicode="&amp;" glyph-name="ampersand" horiz-adv-x="680" d="M639 -18L515 92Q475 38 418 13T295 -12Q249 -12 207 5T134 53T83 122T64 205Q64 269 97 318T182 395Q154 425 135 460T115 541Q115 579 132 610T178 664T241 699T313 712Q344 712 373 704T426
679T467 639T493 586L409 562Q400 596 373 612T309 628Q265 628 236 603T206 536Q206 516 213 498T235 462T269 425T313 385L259 321L241 337Q203 319 179 285T155 206Q155 178 167 154T199 111T247 83T306 72Q402 72 454 146L373 219L428 282L695 45L639 -18Z"
/>
<glyph unicode="&apos;" glyph-name="quotesingle" horiz-adv-x="259" d="M89 435L80 700H179L170 435H89Z" />
<glyph unicode="(" glyph-name="parenleft" horiz-adv-x="345" d="M353 716Q312 689 274 652T207 564T161 449T144 304Q144 224 161 160T207 45T274 -43T353 -108L315 -173Q259 -138 211 -93T127 10T71 140T50 304Q50 395 70 467T126 598T210 701T315 781L353 716Z" />
<glyph unicode=")" glyph-name="parenright" horiz-adv-x="345" d="M30 781Q86 746 134 701T218 598T274 468T295 304Q295 213 275 141T219 10T135 -93T30 -173L-8 -108Q33 -81 71 -44T138 44T184 159T201 304Q201 384 184 448T138 563T71 651T-8 716L30 781Z" />
<glyph unicode="*" glyph-name="asterisk" horiz-adv-x="490" d="M301 524L385 427L315 377L245 490L175 377L105 427L188 524L70 553L96 635L212 587L202 712H288L279 587L394 635L420 553L301 524Z" />
<glyph unicode="+" glyph-name="plus" horiz-adv-x="550" d="M314 350H525V272H314V62H236V272H25V350H236V561H314V350Z" />
<glyph unicode="," glyph-name="comma" horiz-adv-x="250" d="M124 -134H37L88 116H190L124 -134Z" />
<glyph unicode="-" glyph-name="hyphen" horiz-adv-x="460" d="M100 238V320H360V238H100Z" />
<glyph unicode="." glyph-name="period" horiz-adv-x="250" d="M72 0V116H177V0H72Z" />
<glyph unicode="/" glyph-name="slash" horiz-adv-x="363" d="M71 -53L0 -26L292 762L363 735L71 -53Z" />
<glyph unicode="0" glyph-name="zero" horiz-adv-x="550" d="M275 676Q331 676 375 652T449 584T494 476T510 332Q510 252 495 189T449 81T375 12T275 -12Q219 -12 175 12T101 80T56 188T40 332Q40 412 55 475T101 583T175 652T275 676ZM275 590Q209 590 173 527T136
332Q136 201 172 138T275 74Q341 74 377 137T414 332Q414 463 378 526T275 590Z" />
<glyph unicode="1" glyph-name="one" horiz-adv-x="344" d="M155 0V550Q132 538 104 527T55 506V594Q85 609 120 627T188 664H249V0H155Z" />
<glyph unicode="2" glyph-name="two" horiz-adv-x="509" d="M58 0V85Q87 115 118 149T180 218T239 288T292 359Q302 374 313 391T333 426T347 463T353 500Q353 522 344 539T319 568T284 586T244 592Q223 592 205 585T172 564T148 531T139 489L46 508Q49 546 67
577T114 630T178 664T248 676Q287 676 323 664T388 628T433 573T450 500Q450 454 429 406T379 317Q336 256 286 198T184 84H480V0H58Z" />
<glyph unicode="3" glyph-name="three" horiz-adv-x="519" d="M154 388Q186 389 207 391T249 398Q288 409 313 435T338 497Q338 539 307 565T227 592Q190 592 160 574T118 520L38 553Q58 607 108 641T229 676Q275 676 312 664T377 628T419 571T434 498Q434 453
412 415T351 357Q376 348 397 333T435 296T459 248T468 193Q468 145 451 107T403 42T332 2T246 -12Q215 -12 184 -5T124 15T73 50T35 99L109 140Q130 104 165 88T239 72Q265 72 289 79T331 100T361 135T372 185Q372 210 361 231T331 267T286 290T231 299Q214 299
196 298T154 292V388Z" />
<glyph unicode="4" glyph-name="four" d="M326 0V167H26V268Q57 309 94 358T171 460T248 565T321 664H418V251H517V167H418V0H326ZM326 251V532Q303 498 276 460T221 383T169 310T126 251H326Z" />
<glyph unicode="5" glyph-name="five" horiz-adv-x="499" d="M433 580H180Q178 535 176 486T168 394Q191 405 216 409T266 413Q307 413 344 398T408 355T452 290T469 209Q469 162 453 122T407 52T337 5T248 -12Q217 -12 186 -4T126 18T74 52T37 99L112 141Q131
107 164 90T236 72Q268 72 293 82T336 111T363 153T373 206Q373 262 335 295T239 329Q210 329 184 319T136 287L68 324Q72 361 75 405T81 494T86 584T91 664H433V580Z" />
<glyph unicode="6" glyph-name="six" horiz-adv-x="534" d="M405 617Q359 596 319 572T245 516T187 446T149 359Q210 420 299 420Q343 420 379 403T440 357T480 289T494 206Q494 160 478 120T434 51T368 5T283 -12Q226 -12 181 10T104 68T57 153T40 253Q40 332
66 402T136 529T239 630T367 701L405 617ZM279 336Q234 336 195 314T135 252Q135 217 142 185T167 128T210 87T275 72Q303 72 326 82T365 111T389 154T398 208Q398 264 367 300T279 336Z" />
<glyph unicode="7" glyph-name="seven" horiz-adv-x="452" d="M432 595Q401 531 365 451T291 288T218 124T156 -22L69 17Q102 96 139 177T211 333T277 471T328 578H10V664H432V595Z" />
<glyph unicode="8" glyph-name="eight" horiz-adv-x="562" d="M281 -12Q231 -12 190 3T119 44T73 106T56 183Q56 243 83 283T159 350Q121 373 99 406T76 494Q76 532 90 565T132 623T197 662T281 676Q327 676 365 662T430 623T471 565T486 494Q486 440 464 407T403
350Q451 324 478 284T506 183Q506 142 490 107T444 45T373 3T281 -12ZM281 303Q254 303 231 294T190 269T162 232T152 187Q152 162 162 141T189 105T230 81T281 72Q308 72 331 80T372 104T400 141T410 187Q410 211 400 232T373 269T332 294T281 303ZM281 592Q258
592 238 585T203 564T179 531T170 490Q170 469 179 450T203 417T238 395T281 387Q304 387 324 395T359 417T383 450T392 490Q392 512 383 531T359 563T324 584T281 592Z" />
<glyph unicode="9" glyph-name="nine" horiz-adv-x="534" d="M129 47Q175 68 215 92T289 148T347 218T385 305Q324 244 235 244Q191 244 155 261T94 307T54 375T40 458Q40 504 56 544T100 613T166 659T251 676Q308 676 353 654T430 596T477 511T494 411Q494 331
468 262T398 135T294 34T167 -37L129 47ZM255 328Q300 328 339 350T399 412Q399 446 392 478T367 536T324 577T259 592Q230 592 208 582T169 553T145 509T136 456Q136 400 167 364T255 328Z" />
<glyph unicode=":" glyph-name="colon" horiz-adv-x="250" d="M72 384V500H177V384H72ZM72 0V116H177V0H72Z" />
<glyph unicode=";" glyph-name="semicolon" horiz-adv-x="250" d="M124 -134H37L88 116H190L124 -134ZM87 384V500H192V384H87Z" />
<glyph unicode="&lt;" glyph-name="less" horiz-adv-x="550" d="M24 350L525 550V472L121 311L525 150V72L24 272V350Z" />
<glyph unicode="=" glyph-name="equal" horiz-adv-x="550" d="M495 428V350H54V428H495ZM495 272V194H54V272H495Z" />
<glyph unicode="&gt;" glyph-name="greater" horiz-adv-x="550" d="M526 272L25 72V150L429 311L25 472V550L526 350V272Z" />
<glyph unicode="?" glyph-name="question" horiz-adv-x="541" d="M217 210V376Q247 386 275 398T326 427T363 469T377 528Q377 549 369 567T347 600T314 622T272 630Q223 630 194 600T165 518V510H74V514Q74 558 90 594T133 657T196 697T272 712Q315 712 351 696T413
654T453 596T468 531Q468 484 455 451T420 394T370 354T314 324V210H217ZM213 0V116H318V0H213Z" />
<glyph unicode="@" glyph-name="at" horiz-adv-x="800" d="M546 -103Q475 -139 395 -139Q324 -139 262 -112T154 -38T82 71T55 205Q55 277 81 339T154 449T262 523T395 550Q474 550 538 526T649 459T720 356T746 225Q746 184 737 146T710 79T662 31T593 13Q582
13 569 16T542 28T516 52T496 94Q479 61 447 45T380 28Q344 28 314 41T263 77T229 132T217 200Q217 233 228 264T260 319T312 358T382 373Q410 373 437 362T485 330V362H556V208Q556 167 559 143T569 105T584 87T601 82Q619 82 631 94T652 126T664 173T668 226Q668
282 649 328T594 406T508 456T396 474Q340 474 292 454T209 397T154 312T133 206Q133 149 153 100T209 15T292 -42T396 -63Q430 -63 461 -55T521 -33L546 -103ZM485 247Q465 275 439 290T390 306Q363 306 344 297T313 272T296 238T290 199Q290 178 296 159T315
126T346 103T388 94Q413 94 441 115T485 175V247Z" />
<glyph unicode="A" glyph-name="A" horiz-adv-x="653" d="M527 0L472 149H174L120 0H15L286 700H370L638 0H527ZM206 235H441L324 554H323L206 235Z" />
<glyph unicode="B" glyph-name="B" horiz-adv-x="611" d="M95 700H262Q312 700 361 691T448 656Q485 632 503 595T522 511Q522 461 498 425T415 366Q551 325 551 199Q551 139 521 95T437 28Q397 11 349 6T253 0H95V700ZM449 198Q449 251 412 283T303 316H191V84H244Q288
84 325 87T392 105Q418 117 433 139T449 198ZM426 506Q426 538 416 558T386 590Q359 607 322 611T239 616H191V400H258Q337 400 381 425T426 506Z" />
<glyph unicode="C" glyph-name="C" horiz-adv-x="674" d="M642 52Q597 21 545 5T436 -12Q358 -12 290 13T170 86T90 200T60 350Q60 428 89 494T170 608T289 684T436 712Q488 712 535 698T624 658L579 584Q547 604 511 615T436 626Q377 626 327 606T240 548T183
461T162 350Q162 286 182 235T239 148T325 93T436 74Q518 74 591 123L642 52V52Z" />
<glyph unicode="D" glyph-name="D" horiz-adv-x="720" d="M95 700H284Q351 700 418 682T539 622T626 514T660 353Q660 256 627 189T539 79T415 19T274 0H95V700ZM558 344Q558 478 482 546T266 614H191V86H224Q299 86 360 99T466 142T534 221T558 344Z" />
<glyph unicode="E" glyph-name="E" horiz-adv-x="580" d="M95 0V700H515V614H191V404H515V318H191V86H515V0H95Z" />
<glyph unicode="F" glyph-name="F" horiz-adv-x="495" d="M191 299V0H95V700H450V614H191V385H450V299H191Z" />
<glyph unicode="G" glyph-name="G" horiz-adv-x="803" d="M449 302V388H723V122Q672 58 598 23T436 -12Q356 -12 287 14T168 87T89 202T60 350Q60 428 89 494T170 608T289 684T436 712Q517 712 586 679T707 588L639 532Q602 574 549 600T436 626Q377 626 327 606T240
548T183 461T162 350Q162 286 182 235T239 148T325 93T436 74Q492 74 541 93T627 147V302H449Z" />
<glyph unicode="H" glyph-name="H" horiz-adv-x="752" d="M561 0V318H191V0H95V700H191V404H561V700H657V0H561Z" />
<glyph unicode="I" glyph-name="I" horiz-adv-x="286" d="M95 0V700H191V0H95Z" />
<glyph unicode="J" glyph-name="J" horiz-adv-x="341" d="M251 177Q251 91 219 44Q180 -12 85 -12Q59 -12 33 -6T-16 10L10 88Q24 81 39 78T71 74Q121 74 138 98Q149 112 152 134T155 190V700H251V177Z" />
<glyph unicode="K" glyph-name="K" horiz-adv-x="621" d="M369 424L616 0H504L304 346L191 211V0H95V700H191V343L485 700H602L369 424Z" />
<glyph unicode="L" glyph-name="L" horiz-adv-x="500" d="M95 0V700H191V86H495V0H95Z" />
<glyph unicode="M" glyph-name="M" horiz-adv-x="923" d="M493 0H426L191 591V0H95V700H247L460 153L676 700H828V0H732V591L493 0Z" />
<glyph unicode="N" glyph-name="N" horiz-adv-x="755" d="M575 0L191 522V0H95V700H179L564 178V700H660V0H575Z" />
<glyph unicode="O" glyph-name="O" horiz-adv-x="840" d="M678 350Q678 408 659 458T605 546T523 604T420 626Q364 626 317 605T236 546T182 459T162 350Q162 292 181 242T235 154T317 96T420 74Q476 74 523 95T604 154T658 241T678 350ZM780 350Q780 275 753
209T677 94T562 17T420 -12Q343 -12 278 16T164 94T88 209T60 350Q60 425 87 491T163 606T277 683T420 712Q496 712 562 684T676 606T752 491T780 350Z" />
<glyph unicode="P" glyph-name="P" horiz-adv-x="581" d="M551 491Q551 433 529 393T471 327T391 291T304 280H191V0H95V700H304Q346 700 390 689T470 653T528 588T551 491ZM449 488Q449 548 408 581T299 614H191V366H279Q315 366 346 372T400 393T436 431T449 488Z" />
<glyph unicode="Q" glyph-name="Q" horiz-adv-x="840" d="M780 350Q780 273 752 207T673 91L768 -3L707 -64L604 37Q564 14 518 1T420 -12Q343 -12 278 16T164 94T88 209T60 350Q60 425 87 491T163 606T277 683T420 712Q496 712 562 684T676 606T752 491T780 350ZM678
350Q678 408 659 458T605 546T523 604T420 626Q364 626 317 605T236 546T182 459T162 350Q162 292 181 242T235 154T317 96T420 74Q486 74 539 103L441 201L502 262L607 157Q641 194 659 243T678 350Z" />
<glyph unicode="R" glyph-name="R" horiz-adv-x="613" d="M473 0L263 296H191V0H95V700H303Q343 700 385 689T462 654T519 592T542 499Q542 454 528 421T489 363T434 324T371 302L593 0H473ZM440 496Q440 550 401 582T298 614H191V382H278Q313 382 342 388T394
409T428 444T440 496Z" />
<glyph unicode="S" glyph-name="S" horiz-adv-x="609" d="M458 570Q433 593 393 609T311 626Q255 626 221 601T186 529Q186 506 198 490T230 461T276 438T332 418Q369 405 407 389T475 348T525 290T544 206Q544 147 521 106T461 38T382 0T298 -12Q221 -12 161
13T45 93L113 157Q138 133 160 117T204 92T250 78T299 74Q326 74 351 81T397 102T430 140T442 195Q442 224 429 244T395 279T345 305T286 327Q250 339 215 355T152 393T107 446T89 519Q89 568 106 604T152 665T219 700T300 712Q363 712 416 694T517 640L458 570V570Z"
/>
<glyph unicode="T" glyph-name="T" horiz-adv-x="488" d="M292 614V0H196V614H20V700H468V614H292Z" />
<glyph unicode="U" glyph-name="U" horiz-adv-x="722" d="M632 329Q632 164 568 76T359 -12Q218 -12 154 76T90 329V700H186V304Q186 187 233 131T361 74Q442 74 489 130T536 304V700H632V329Z" />
<glyph unicode="V" glyph-name="V" horiz-adv-x="633" d="M357 0H273L5 700H116L319 146H320L523 700H628L357 0Z" />
<glyph unicode="W" glyph-name="W" horiz-adv-x="886" d="M630 172H632L779 700H881L681 0H585L445 533H443L291 0H197L5 700H111L251 172H253L400 700H490L630 172Z" />
<glyph unicode="X" glyph-name="X" horiz-adv-x="651" d="M388 354L646 0H525L322 277L126 0H5L262 356L13 700H136L330 431L523 700H642L388 354Z" />
<glyph unicode="Y" glyph-name="Y" horiz-adv-x="555" d="M228 0V304L5 700H124L280 406H283L438 700H550L324 299V0H228Z" />
<glyph unicode="Z" glyph-name="Z" horiz-adv-x="547" d="M173 86H527V0H40V51L371 614H48V700H502V648L173 86Z" />
<glyph unicode="[" glyph-name="bracketleft" horiz-adv-x="311" d="M90 -170V750H301V673H172V-93H301V-170H90Z" />
<glyph unicode="\" glyph-name="backslash" horiz-adv-x="363" d="M292 -53L0 735L71 762L363 -26L292 -53Z" />
<glyph unicode="]" glyph-name="bracketright" horiz-adv-x="311" d="M10 -170V-93H139V673H10V750H221V-170H10Z" />
<glyph unicode="^" glyph-name="asciicircum" horiz-adv-x="550" d="M396 350L275 604L154 350H76L227 681H323L474 350H396Z" />
<glyph unicode="_" glyph-name="underscore" horiz-adv-x="550" d="M0 -235V-172H550V-235H0Z" />
<glyph unicode="`" glyph-name="grave" horiz-adv-x="360" d="M57 726L123 777L246 608L191 566L57 726Z" />
<glyph unicode="a" glyph-name="a" horiz-adv-x="546" d="M381 0V53Q350 18 315 3T231 -12Q196 -12 165 -4T108 23T69 71T54 140Q54 188 73 219T124 270T196 298T277 306Q296 306 320 304T377 295V313Q377 370 349 401T259 433Q215 433 173 420T100 389L73 465Q112
484 165 498T270 512Q324 512 362 498T423 456T457 391T468 304V0H381ZM377 227Q349 233 328 235T287 237Q264 237 239 234T192 220T157 193T143 147Q143 124 151 108T172 83T204 69T242 64Q280 64 313 81T377 124V227Z" />
<glyph unicode="b" glyph-name="b" horiz-adv-x="626" d="M175 750V433Q202 472 245 492T334 512Q388 512 434 492T513 436T565 352T584 249Q584 199 566 153T515 69T436 10T332 -12Q287 -12 246 5T175 54V0H84V750H175ZM175 148Q201 111 241 92T320 72Q363 72
395 88T449 129T480 187T491 251Q491 286 479 318T446 374T393 413T322 428Q302 428 280 422T238 404T201 374T175 333V148Z" />
<glyph unicode="c" glyph-name="c" horiz-adv-x="475" d="M451 37Q423 14 383 1T298 -12Q244 -12 198 6T117 59T62 142T42 250Q42 305 62 352T117 435T200 491T303 512Q343 512 378 501T444 469L401 394Q380 410 353 419T299 428Q265 428 236 414T184 376T148
320T135 250Q135 209 148 177T185 121T237 85T300 72Q325 72 355 82T406 107L451 37Z" />
<glyph unicode="d" glyph-name="d" horiz-adv-x="626" d="M292 -12Q238 -12 192 8T113 64T61 147T42 250Q42 300 60 347T111 431T190 490T294 512Q338 512 379 494T451 445V750H542V0H451V67Q424 27 381 8T292 -12ZM304 72Q324 72 346 78T388 96T424 125T451 166V352Q425
389 385 408T306 428Q262 428 230 412T177 371T146 313T135 248Q135 213 147 182T180 126T233 87T304 72Z" />
<glyph unicode="e" glyph-name="e" horiz-adv-x="560" d="M133 227Q135 195 147 166T179 114T229 79T294 66Q344 66 382 85T443 147L509 105Q471 45 419 17T290 -12Q230 -12 184 8T107 64T59 147T42 250Q42 306 61 354T113 437T192 492T290 512Q339 512 381 495T453
446T501 372T518 279Q518 266 517 252T514 227H133ZM291 434Q261 434 236 424T192 395T160 353T140 300H424Q422 327 412 351T385 393T343 423T291 434Z" />
<glyph unicode="f" glyph-name="f" horiz-adv-x="337" d="M340 664Q326 671 311 674T278 678Q258 678 244 674T220 662Q203 648 199 623T194 563V500H329V420H194V0H103V420H46V500H103V572Q103 611 110 644T134 703Q153 731 184 746T267 762Q292 762 318 756T366
740L340 664Z" />
<glyph unicode="g" glyph-name="g" horiz-adv-x="620" d="M542 28Q542 -52 516 -103Q499 -136 475 -158T422 -195T359 -215T290 -222Q232 -222 173 -206T69 -156L104 -78Q139 -103 189 -120T288 -138Q320 -138 349 -130T401 -104T437 -58T451 10V79Q424 39 380
20T291 0Q238 0 193 19T114 73T61 155T42 256Q42 305 60 351T111 433T190 490T294 512Q338 512 379 494T451 445V500H542V28ZM451 352Q425 389 385 408T306 428Q262 428 230 413T177 373T146 317T135 254Q135 220 147 190T181 136T234 98T303 84Q323 84 345 90T387
108T424 137T451 177V352Z" />
<glyph unicode="h" glyph-name="h" horiz-adv-x="606" d="M175 418Q203 463 245 487T338 512Q391 512 426 495T483 449Q509 414 518 366T528 260V0H437V250Q437 287 433 324T411 388Q399 406 378 417T324 428Q280 428 241 401T175 332V0H84V750H175V418Z" />
<glyph unicode="i" glyph-name="i" horiz-adv-x="259" d="M84 0V500H175V0H84ZM84 598V700H175V598H84Z" />
<glyph unicode="j" glyph-name="j" horiz-adv-x="267" d="M92 598V700H183V598H92ZM183 -44Q183 -71 180 -94T169 -139Q155 -176 123 -199T36 -222Q-20 -222 -60 -200L-34 -126Q-23 -132 -9 -136T22 -140Q46 -140 60 -131T81 -107T90 -71T92 -26V500H183V-44Z" />
<glyph unicode="k" glyph-name="k" horiz-adv-x="514" d="M397 0L254 224L175 132V0H84V750H175V250L177 249L379 500H491L316 296L508 0H397Z" />
<glyph unicode="l" glyph-name="l" horiz-adv-x="259" d="M175 0H84V750H175V0Z" />
<glyph unicode="m" glyph-name="m" horiz-adv-x="919" d="M750 0V250Q750 286 747 323T726 388Q714 406 693 417T640 428Q604 428 567 405T502 345Q508 307 508 260V0H417V250Q417 286 414 325T390 393Q379 409 361 418T313 428Q294 428 275 420T237 399T203 370T175
336V0H84V500H175V424Q203 464 245 488T332 512Q376 512 412 496T471 443Q475 438 478 432T483 420Q515 466 560 489T657 512Q708 512 741 497T795 453Q821 418 831 368T841 260V0H750Z" />
<glyph unicode="n" glyph-name="n" horiz-adv-x="606" d="M175 500V418Q203 463 245 487T338 512Q391 512 426 495T483 449Q509 414 518 366T528 260V0H437V250Q437 287 433 324T411 388Q399 406 378 417T324 428Q280 428 241 401T175 332V0H84V500H175Z" />
<glyph unicode="o" glyph-name="o" horiz-adv-x="594" d="M297 512Q352 512 398 492T479 436T532 353T552 250Q552 195 533 148T479 65T399 9T297 -12Q242 -12 196 8T115 64T62 147T42 250Q42 305 61 352T115 435T195 491T297 512ZM459 250Q459 286 447 318T414
375T362 414T297 428Q262 428 232 414T181 376T147 319T135 250Q135 214 147 182T180 125T232 86T297 72Q332 72 362 86T413 124T447 181T459 250Z" />
<glyph unicode="p" glyph-name="p" horiz-adv-x="626" d="M175 500V433Q202 472 245 492T334 512Q388 512 434 492T513 436T565 352T584 249Q584 199 566 153T515 69T436 10T332 -12Q287 -12 246 5T175 54V-250H84V500H175ZM175 148Q201 111 241 92T320 72Q363
72 395 88T449 129T480 187T491 251Q491 286 479 318T446 374T393 413T322 428Q302 428 280 422T238 404T201 374T175 333V148Z" />
<glyph unicode="q" glyph-name="q" horiz-adv-x="626" d="M542 -250H451V67Q424 27 381 8T292 -12Q238 -12 192 8T113 64T61 147T42 250Q42 300 60 347T111 431T190 490T294 512Q338 512 379 494T451 445V500H542V-250ZM451 352Q425 389 385 408T306 428Q262 428
230 412T177 371T146 313T135 248Q135 213 147 182T180 126T233 87T304 72Q324 72 346 78T388 96T424 125T451 166V352Z" />
<glyph unicode="r" glyph-name="r" horiz-adv-x="357" d="M175 417Q198 458 230 485T304 512Q320 512 332 511T358 506L341 409Q320 419 294 419Q256 419 227 398T175 335V0H84V500H175V417Z" />
<glyph unicode="s" glyph-name="s" horiz-adv-x="451" d="M328 399Q311 414 283 425T229 436Q194 436 174 418T154 370Q154 356 162 345T183 325T214 309T250 294Q274 285 300 273T347 243T382 202T396 145Q396 103 381 73T341 25T283 -3T215 -12Q164 -12 118
8T43 66L107 117Q157 64 216 64Q253 64 279 83T306 141Q306 156 298 167T277 187T246 203T210 218Q185 228 160 239T114 266T80 306T67 363Q67 401 80 429T116 475T168 503T228 512Q271 512 311 498T382 457L328 399Z" />
<glyph unicode="t" glyph-name="t" horiz-adv-x="346" d="M180 420V194Q180 184 180 175T181 155Q183 115 198 93T251 71Q266 71 280 75T307 85L332 12Q313 2 289 -4T239 -10Q186 -10 154 11T105 68Q96 89 93 116T89 172V420H22V500H89V620H180V500H320V420H180Z" />
<glyph unicode="u" glyph-name="u" horiz-adv-x="606" d="M431 82Q403 37 361 13T268 -12Q215 -12 180 5T123 51Q97 86 88 134T78 240V500H169V250Q169 213 173 176T195 112Q207 94 228 83T282 72Q326 72 365 99T431 168V500H522V0H431V82Z" />
<glyph unicode="v" glyph-name="v" horiz-adv-x="479" d="M473 500L279 0H197L8 500H109L242 113H244L376 500H473Z" />
<glyph unicode="w" glyph-name="w" horiz-adv-x="733" d="M520 115H523L625 500H717L573 0H475L368 389H366L256 0H154L16 500H114L208 115H210L321 500H419L520 115Z" />
<glyph unicode="x" glyph-name="x" horiz-adv-x="490" d="M303 257L484 0H368L243 186L118 0H6L190 249L16 500H131L251 322L370 500H480L303 257Z" />
<glyph unicode="y" glyph-name="y" horiz-adv-x="477" d="M107 500L237 121H239L372 500H471L190 -225L110 -194L189 15L6 500H107Z" />
<glyph unicode="z" glyph-name="z" horiz-adv-x="454" d="M280 420H48V500H401V460L180 80H418V0H59V41L280 420Z" />
<glyph unicode="{" glyph-name="braceleft" horiz-adv-x="311" d="M11 342Q54 352 72 393T90 488V563Q90 606 103 643T139 706T196 747T271 762Q279 762 285 762T300 761V682Q293 683 288 683T275 684Q246 684 227 673T195 641T178 593T172 536V461Q172 410 155
369T105 301Q137 274 154 233T172 141V44Q172 14 177 -13T195 -60T226 -92T275 -104Q282 -104 288 -104T300 -102V-181Q292 -182 286 -182T271 -182Q230 -182 197 -167T140 -126T103 -64T90 17V126Q90 176 71 214T9 260L11 342Z" />
<glyph unicode="|" glyph-name="bar" horiz-adv-x="318" d="M120 -170V858H198V-170H120Z" />
<glyph unicode="}" glyph-name="braceright" horiz-adv-x="311" d="M301 260Q259 252 240 214T220 126V17Q220 -27 207 -63T171 -126T114 -167T39 -182Q31 -182 25 -182T10 -181V-102Q16 -103 22 -103T35 -104Q63 -104 83 -93T115 -61T132 -13T138 44V141Q138
192 155 233T205 301Q173 327 156 368T138 461V536Q138 566 133 593T115 640T83 672T35 684Q28 684 23 684T10 682V761Q18 762 24 762T39 762Q80 762 113 747T170 706T207 643T220 563V488Q220 434 238 393T299 342L301 260Z" />
<glyph unicode="~" glyph-name="asciitilde" horiz-adv-x="550" d="M517 397Q518 391 518 383T519 365Q519 308 481 276T383 243Q345 243 315 257T260 288T211 319T163 333Q143 333 126 320T108 287Q108 283 108 279T110 270L34 262Q33 268 33 276T32 294Q32 351
70 383T168 416Q206 416 236 402T291 371T340 340T388 326Q408 326 425 339T443 372Q443 376 443 380T441 389L517 397Z" />
</font>
</defs>
</svg>
